Go Back   FileForums > Game Backup > SEGA > DC Games

Reply
 
Thread Tools Display Modes
  #1  
Old 02-01-2001, 23:15
Dalvin Dalvin is offline
Junior Member
 
Join Date: Jan 2001
Posts: 3
Thanks: 0
Thanked 0 Times in 0 Posts
Dalvin
HELP ME PLZ!!!!

Ok I am having problems trying to backup Expendable using CDR-WIN. I can load the cue sheet ok, except once i click on the record buttong i get this error message: "START DAO RECORDING command failed on device 0:3:0 Cuesheet was rejected by the CD ROM Recorder". I dont really know wats wrong but if anyone could give me any ideas, it would be greatly appriciated. I think the problem might be where the new indexes start (00:00:00) on the audio files.

Here is wat the cue sheet had on it:

FILE "KAL-EXP.BIN" BINARY
TRACK 01 MODE1/2352
INDEX 01 00:00:00
FILE "track_02.wav" WAVE
TRACK 02 AUDIO
INDEX 01 00:00:00
FILE "track_03.wav" WAVE
TRACK 03 AUDIO
INDEX 01 00:00:00
FILE "track_04.wav" WAVE
TRACK 04 AUDIO
INDEX 01 00:00:00
FILE "track_05.wav" WAVE
TRACK 05 AUDIO
INDEX 01 00:00:00
FILE "track_06.wav" WAVE
TRACK 06 AUDIO
INDEX 01 00:00:00
FILE "track_07.wav" WAVE
TRACK 07 AUDIO
INDEX 01 00:00:00
FILE "track_08.wav" WAVE
TRACK 08 AUDIO
INDEX 01 00:00:00
FILE "track_09.wav" WAVE
TRACK 09 AUDIO
INDEX 01 00:00:00
FILE "track_10.wav" WAVE
TRACK 10 AUDIO
INDEX 01 00:00:00
FILE "track_11.wav" WAVE
TRACK 11 AUDIO
INDEX 01 00:00:00
FILE "track_12.wav" WAVE
TRACK 12 AUDIO
INDEX 01 00:00:00
FILE "track_13.wav" WAVE
TRACK 13 AUDIO
INDEX 01 00:00:00
FILE "track_14.wav" WAVE
TRACK 14 AUDIO
INDEX 01 00:00:00
FILE "track_15.wav" WAVE
TRACK 15 AUDIO
INDEX 01 00:00:00
FILE "track_16.wav" WAVE
TRACK 16 AUDIO
INDEX 01 00:00:00
FILE "track_17.wav" WAVE
TRACK 17 AUDIO
INDEX 01 00:00:00
FILE "track_18.wav" WAVE
TRACK 18 AUDIO
INDEX 01 00:00:00
FILE "track_19.wav" WAVE
TRACK 19 AUDIO
INDEX 01 00:00:00
FILE "track_20.wav" WAVE
TRACK 20 AUDIO
INDEX 01 00:00:00
FILE "track_21.wav" WAVE
TRACK 21 AUDIO
INDEX 01 00:00:00
FILE "track_22.wav" WAVE
TRACK 22 AUDIO
INDEX 01 00:00:00
FILE "track_23.wav" WAVE
TRACK 23 AUDIO
INDEX 01 00:00:00
FILE "track_24.wav" WAVE
TRACK 24 AUDIO
INDEX 01 00:00:00
FILE "track_25.wav" WAVE
TRACK 25 AUDIO
INDEX 01 00:00:00
FILE "track_26.wav" WAVE
TRACK 26 AUDIO
INDEX 01 00:00:00
FILE "track_27.wav" WAVE
TRACK 27 AUDIO
INDEX 01 00:00:00
Reply With Quote
Sponsored Links
Reply

Thread Tools
Display Modes

Posting Rules
You may not post new threads
You may not post replies
You may not post attachments
You may not edit your posts

BB code is On
Smilies are On
[IMG] code is On
HTML code is Off

Forum Jump



All times are GMT -7. The time now is 15:35.


Powered by vBulletin® Version 3.8.11
Copyright ©2000 - 2017, vBulletin Solutions Inc.
Copyright 2000-2017, FileForums @ http://fileforums.com